Skip to main content

Dopapod Live at The Spot Underground on 2013-03-15

Audio Preview

etree
Dopapod Live at The Spot Underground on 2013-03-15

by Dopapod



01. Intro
02. Braindead
03. My Elephant vs. Your Elephant
04. Onionhead
05. Like a Ball
06. Nuggy Jawson
07. banter
08. Priorities
09. Bubblebrain >
10. We Are Not Alone >
11. Bats in the Cave
12. Ellemenno
13. encore break
14. The Happy Song
15. Present Ghosts


Collection Dopapod
Band/Artist Dopapod
Venue The Spot Underground
Location Providence, RI

Source Schoeps MK41/MK22>Sonosax SX-R4 & SB>SX-R4
Lineage WAV>USB>Macbook Pro>Audacity(mixing)>Wave Editor(tracking,fades,resample(izotope)/dither(mbit+)to 16 bit/44.1k)>XAct(FLAC 8,ffp,fix sbe)
Taped by Andy Murray
Transferred by Andy Murray

Notes

Dopapod
2013-03-15
The Spot Underground
Providence, RI

50' from stage right of center

mk41s were DIN, mk22s were 21cm,110 degrees both on the same stand.

Source:
Schoeps mk22> SchoepsNbox actives/Naiant PFAs>Sonosax SX-R4
Schoeps mk41>KC5>CMC6>Sonosax SX-R4 & Soundboard>SX-R4 (24bit/96khz)

Lineage:
WAV>USB>Macbook Pro>Audacity(mixing)>Wave Editor(tracking,fades,resample(izotope)/dither(mbit+)to 16 bit/44.1k)>XAct(FLAC 8,ffp,fix sbe)

Taped by: Andy Murray
Transferred by: Andy Murray

Thanks to Brian Vaz for the clamp space

Thanks to Luke Stratton for the SBD feed.

FiKus opened

1 Set

length expanded size cdr WAVE problems fmt ratio filename
5:49.73 61735340 B --- -- ----- wav 1.0000 dopapod2013-03-15_mk41mk22sbmix_1644_d1t01.wav
9:38.17 101999228 B --- -- ----- wav 1.0000 dopapod2013-03-15_mk41mk22sbmix_1644_d1t02.wav
11:43.50 124126844 B --- -- ----- wav 1.0000 dopapod2013-03-15_mk41mk22sbmix_1644_d1t03.wav
11:26.51 121130396 B --- -- ----- wav 1.0000 dopapod2013-03-15_mk41mk22sbmix_1644_d1t04.wav
12:49.48 135764540 B --- -- ----- wav 1.0000 dopapod2013-03-15_mk41mk22sbmix_1644_d1t05.wav
16:25.44 173857532 B --- -- ----- wav 1.0000 dopapod2013-03-15_mk41mk22sbmix_1644_d1t06.wav
1:29.18 15741980 B --- -- ----- wav 1.0000 dopapod2013-03-15_mk41mk22sbmix_1644_d1t07.wav
7:45.41 82122476 B --- -- ----- wav 1.0000 dopapod2013-03-15_mk41mk22sbmix_1644_d1t08.wav
7:47.67 82536428 B --- -- ----- wav 1.0000 dopapod2013-03-15_mk41mk22sbmix_1644_d1t09.wav
7:23.07 78161708 B --- -- ----- wav 1.0000 dopapod2013-03-15_mk41mk22sbmix_1644_d1t10.wav
18:18.69 193849532 B --- -- ----- wav 1.0000 dopapod2013-03-15_mk41mk22sbmix_1644_d1t11.wav
7:36.12 80466668 B --- -- ----- wav 1.0000 dopapod2013-03-15_mk41mk22sbmix_1644_d1t12.wav
1:28.35 15605564 B --- -- ----- wav 1.0000 dopapod2013-03-15_mk41mk22sbmix_1644_d1t13.wav
4:21.72 46209788 B --- -- ----- wav 1.0000 dopapod2013-03-15_mk41mk22sbmix_1644_d1t14.wav
8:59.09 95100812 B --- -- ----- wav 1.0000 dopapod2013-03-15_mk41mk22sbmix_1644_d1t15.wav
133:04.13 1408408836 B 1.0000 (15 files)

comment
Reviews

There are no reviews yet. Be the first one to write a review.
DOWNLOAD OPTIONS
In Collection
Dopapod
In Collection
Live Music Archive
Uploaded by
andyjah
on 3/17/2013
Views
128
SIMILAR ITEMS (based on metadata)
eye
Title
Date Archived
Creator
Dopapod
by Dopapod
etree
eye 52
favorite 0
comment 0
Source: DPA 4011 > V3 Digital > + SBD > DR-680 (24/96)
Dopapod
by Dopapod
etree
eye 58
favorite 0
comment 0
Source: Schoeps MK41/MK22>Sonosax SX-R4 & SB>SX-R4
Dopapod
by Dopapod
etree
eye 235
favorite 0
comment 0
Source: DPA 4011 > V3 Digital > + SBD > DR-680 (24/96)
Dopapod
by Dopapod
etree
eye 1,432
favorite 2
comment 1
favoritefavoritefavoritefavoritefavorite ( 1 reviews )
Source: Soundboard multitrack via Presonus StudioLive 16.4.2 (16-bit/48k).
Dopapod
by Dopapod
etree
eye 100
favorite 0
comment 0
Source: Tascam DR-100
Dopapod
by Dopapod
etree
eye 140
favorite 0
comment 0
Source: Schoeps MK22/MK4>Sonosax SX-R4 + Soundboard>SX-R4
Dopapod
by Dopapod
etree
eye 119
favorite 0
comment 0
Source: Neumann AK40(ORTF)>LC-3>KM-100> UA-5 T+ > Tascam DR-2D
Dopapod
by Dopapod
etree
eye 297
favorite 1
comment 0
Source: Schoeps MK22/MK4>Sonosax SX-R4 + Soundboard>SX-R4
Dopapod
by Dopapod
etree
eye 87
favorite 0
comment 0
Source: Schoeps MK4>KC5>CMC6>Sonosax SX-R4(24bit/96khz) & Soundboard>SX-R4
Dopapod
by Dopapod
etree
eye 98
favorite 0
comment 0
Source: AKG CK-61 > Tascam DR-60D